These are chat archives for Anddward/L_and_W

30th
May 2016
cocowuhuiling
@cocowuhuiling
May 30 2016 01:35 UTC
么么哒
9点22分打的卡
:kissing_heart:
Anddward.Liao
@Anddward
May 30 2016 01:36 UTC
:kissing_smiling_eyes:
cocowuhuiling
@cocowuhuiling
May 30 2016 05:32 UTC
老公中午吃的是什么?
Anddward.Liao
@Anddward
May 30 2016 05:36 UTC
土豆肉丝
cocowuhuiling
@cocowuhuiling
May 30 2016 05:37 UTC
我吃了红烧牛肉面,在兰州拉面吃的
Anddward.Liao
@Anddward
May 30 2016 05:37 UTC
这么远,我只去了趟湖南吃土豆肉丝,你居然跑兰州去了
cocowuhuiling
@cocowuhuiling
May 30 2016 05:37 UTC
:smile:
cocowuhuiling
@cocowuhuiling
May 30 2016 06:41 UTC
cocowuhuiling
@cocowuhuiling
May 30 2016 08:20 UTC
屏幕快照 2016-05-30 下午3.51.36.png
Anddward.Liao
@Anddward
May 30 2016 08:37 UTC
哈哈,有时间认识一下
cocowuhuiling
@cocowuhuiling
May 30 2016 08:42 UTC
我现在才发现我忘了写自我介绍了,所以欣榆没发我的自我介绍邮件
Anddward.Liao
@Anddward
May 30 2016 08:45 UTC
直接写个吊炸天的页面摆上去,告诉他们,今后前端就你承包了
cocowuhuiling
@cocowuhuiling
May 30 2016 08:46 UTC
哈哈
Anddward.Liao
@Anddward
May 30 2016 10:12 UTC
老婆有没有办法把一个swf文件转成gif
我试了一些web上面的转换器,都无法将客户这个swf转换成gif
cocowuhuiling
@cocowuhuiling
May 30 2016 10:13 UTC
老婆帮忙看看
Anddward.Liao
@Anddward
May 30 2016 10:14 UTC
听说wind下面的flash 8 软件可以,但是懒得下载去虚拟器装
你有收到我发的文件不?
cocowuhuiling
@cocowuhuiling
May 30 2016 10:14 UTC
Anddward.Liao
@Anddward
May 30 2016 10:14 UTC
我在gitter发了一个flash给你
好吧,我去微信发给你
cocowuhuiling
@cocowuhuiling
May 30 2016 10:15 UTC
或者你上传到百度网盘
我去下载也行
Anddward.Liao
@Anddward
May 30 2016 10:18 UTC
在tower上面了
或者帮我问下何岸,不过我觉得他应该没空帮我搞
cocowuhuiling
@cocowuhuiling
May 30 2016 10:20 UTC
没事,老婆帮问
屏幕快照 2016-05-30 下午6.22.28.png
Anddward.Liao
@Anddward
May 30 2016 10:22 UTC
文件
cocowuhuiling
@cocowuhuiling
May 30 2016 10:22 UTC
没有源文件
Anddward.Liao
@Anddward
May 30 2016 10:23 UTC
文件那个tab进去
cocowuhuiling
@cocowuhuiling
May 30 2016 10:23 UTC
o
我看到了
Anddward.Liao
@Anddward
May 30 2016 10:23 UTC
以后我放到对应的任务里面吧,刚刚上传直接放到文件里面了
cocowuhuiling
@cocowuhuiling
May 30 2016 10:24 UTC
ok
何岸说没有
我到window 下面去转换
cocowuhuiling
@cocowuhuiling
May 30 2016 10:35 UTC
老公,有没有window 下面的可靠的 flash 8 的下载链接
Anddward.Liao
@Anddward
May 30 2016 10:35 UTC
:cry:
cocowuhuiling
@cocowuhuiling
May 30 2016 10:35 UTC
我下载了之后好多乱七八糟的东西
Anddward.Liao
@Anddward
May 30 2016 10:36 UTC
囧rz 我也不清楚windows现在去哪里下东西会比较好
我今晚问问永添吧
或者他还没走的话你直接找他也可以
cocowuhuiling
@cocowuhuiling
May 30 2016 10:56 UTC
正在转换
cocowuhuiling
@cocowuhuiling
May 30 2016 11:28 UTC
我前面就有一台window 电脑
用虚拟机转换好慢
我现在用公司的window 电脑来转换
cocowuhuiling
@cocowuhuiling
May 30 2016 11:34 UTC
失败了
我换一个软件试试
cocowuhuiling
@cocowuhuiling
May 30 2016 12:09 UTC
cocodeMacBook-Pro:~/Downloads$ ffmpeg -i wuhan.swf wuhan.gif
ffmpeg version 3.0 Copyright (c) 2000-2016 the FFmpeg developers
  built with Apple LLVM version 7.0.2 (clang-700.1.81)
  configuration: --prefix=/usr/local/Cellar/ffmpeg/3.0 --enable-shared --enable-pthreads --enable-gpl --enable-version3 --enable-hardcoded-tables --enable-avresample --cc=clang --host-cflags= --host-ldflags= --enable-opencl --enable-libx264 --enable-libmp3lame --enable-libxvid --enable-vda
  libavutil      55. 17.103 / 55. 17.103
  libavcodec     57. 24.102 / 57. 24.102
  libavformat    57. 25.100 / 57. 25.100
  libavdevice    57.  0.101 / 57.  0.101
  libavfilter     6. 31.100 /  6. 31.100
  libavresample   3.  0.  0 /  3.  0.  0
  libswscale      4.  0.100 /  4.  0.100
  libswresample   2.  0.101 /  2.  0.101
  libpostproc    54.  0.100 / 54.  0.100
[swf @ 0x7fa483808400] SWF compressed file detected
[mjpeg @ 0x7fa484808a00] Changing bps to 8
[mjpeg @ 0x7fa484808a00] EOI missing, emulating
[swf @ 0x7fa483808400] Could not find codec parameters for stream 0 (Audio: mp3, 11025 Hz, mono): unspecified frame size
Consider increasing the value for the 'analyzeduration' and 'probesize' options
Input #0, swf, from 'wuhan.swf':
  Duration: N/A, bitrate: N/A
    Stream #0:0: Audio: mp3, 11025 Hz, mono
    Stream #0:1: Video: mjpeg, yuvj444p(pc, bt470bg/unknown/unknown), 2065x2490, 12 tbr, 12 tbn
[swscaler @ 0x7fa483824800] deprecated pixel format used, make sure you did set range correctly
Output #0, gif, to 'wuhan.gif':
  Metadata:
    encoder         : Lavf57.25.100
    Stream #0:0: Video: gif, bgr8, 2065x2490, q=2-31, 200 kb/s, 12 fps, 100 tbn, 12 tbc
    Metadata:
      encoder         : Lavc57.24.102 gif
Stream mapping:
  Stream #0:1 -> #0:0 (mjpeg (native) -> gif (native))
Press [q] to stop, [?] for help
[mjpeg @ 0x7fa48480a000] overread 8
[mjpeg @ 0x7fa48480a000] EOI missing, emulating
frame=    1 fps=0.0 q=-0.0 Lsize=    1569kB time=00:00:00.08 bitrate=160688.5kbits/s speed=0.441x
video:1568kB audio:0kB subtitle:0kB other streams:0kB global headers:0kB muxing overhead: 0.050371%
这是老婆找到的一些资源
我觉得在windows 下转换是没戏了
:cry:
老婆先下班了