These are chat archives for WritingMinds/ffmpeg-android-java

19th
Dec 2016
OneXeor
@OneXeor
Dec 19 2016 12:21
hi, help me please
i get this error when i call exec("ffmpeg command") from servlet, and sorry for my bad english
 built with gcc 4.8 (Ubuntu 4.8.4-2ubuntu1~14.04.3)           error
[qtp1134517053-10] DEBUG PutFileServlet -   libavutil      55. 34.100 / 55. 34.100           error
[qtp1134517053-10] DEBUG PutFileServlet -   libavformat    57. 56.100 / 57. 56.100           error
[qtp1134517053-10] DEBUG PutFileServlet -   libavfilter     6. 65.100 /  6. 65.100           error
[qtp1134517053-10] DEBUG PutFileServlet -   libswscale      4.  2.100 /  4.  2.100           error
[qtp1134517053-10] DEBUG PutFileServlet -   libpostproc    54.  1.100 / 54.  1.100           error
[qtp1134517053-10] DEBUG PutFileServlet - [flv @ 0x3ee7ca0] audio stream discovered after head already parsed           error
[qtp1134517053-10] DEBUG PutFileServlet -   Duration: 00:00:00.-99, start: 0.000000, bitrate: N/A           error
[qtp1134517053-10] DEBUG PutFileServlet -     Stream #0:1: Audio: pcm_s16le, 11025 Hz, mono, s16, 176 kb/s           error
[qtp1134517053-10] DEBUG PutFileServlet -   Metadata:           error
[qtp1134517053-10] DEBUG PutFileServlet -     Stream #0:0: Video: h264 (Main) ([7][0][0][0] / 0x0007), yuv420p(progressive), 1280x720, q=2-31, 25 fps, 25 tbr, 1k tbn, 1k tbc           error
[qtp1134517053-10] DEBUG PutFileServlet - Stream mapping:           error
[qtp1134517053-10] DEBUG PutFileServlet -   Stream #0:1 -> #0:1 (copy)           error
[qtp1134517053-10] DEBUG PutFileServlet - frame=   13 fps=0.0 q=-1.0 size=      69kB time=00:00:00.51 bitrate=1096.4kbits/s speed=1.02x               error
[qtp1134517053-10] DEBUG PutFileServlet - video:61kB audio:12kB subtitle:0kB other streams:0kB global headers:0kB muxing overhead: 1.150408%